<?xml version="1.0" standalone="no"?>
<!DOCTYPE svg PUBLIC "-//W3C//DTD SVG 1.1//EN" "http://www.w3.org/Graphics/SVG/1.1/DTD/svg11.dtd" >
<!--
2013-9-30: Created.
-->
<svg>
<metadata>
Created by iconfont
</metadata>
<defs>

<font id="iconfont" horiz-adv-x="1024" >
  <font-face
    font-family="iconfont"
    font-weight="500"
    font-stretch="normal"
    units-per-em="1024"
    ascent="896"
    descent="-128"
  />
    <missing-glyph />
    
    <glyph glyph-name="ic_gc_follow_video" unicode="&#58882;" d="M270.222222 746.666667h483.555556c66.844444 0 120.888889-54.044444 120.888889-120.888889v-483.555556c0-66.844444-54.044444-120.888889-120.888889-120.888889H270.222222c-66.844444 0-120.888889 54.044444-120.888889 120.888889V625.777778c0 66.844444 54.044444 120.888889 120.888889 120.888889z m0-71.111111c-27.022222 0-49.777778-22.755556-49.777778-49.777778v-483.555556c0-27.022222 22.755556-49.777778 49.777778-49.777778h483.555556c27.022222 0 49.777778 22.755556 49.777778 49.777778V625.777778c0 27.022222-22.755556 49.777778-49.777778 49.777778H270.222222z m28.444445-113.777778c-19.911111 0-35.555556 15.644444-35.555556 35.555555s15.644444 35.555556 35.555556 35.555556h56.888889c19.911111 0 35.555556-15.644444 35.555555-35.555556s-15.644444-35.555556-35.555555-35.555555h-56.888889z m0-426.666667c-19.911111 0-35.555556 15.644444-35.555556 35.555556s15.644444 35.555556 35.555556 35.555555h56.888889c19.911111 0 35.555556-15.644444 35.555555-35.555555s-15.644444-35.555556-35.555555-35.555556h-56.888889z m184.888889 426.666667c-19.911111 0-35.555556 15.644444-35.555556 35.555555s15.644444 35.555556 35.555556 35.555556h56.888888c19.911111 0 35.555556-15.644444 35.555556-35.555556s-15.644444-35.555556-35.555556-35.555555h-56.888888z m0-426.666667c-19.911111 0-35.555556 15.644444-35.555556 35.555556s15.644444 35.555556 35.555556 35.555555h56.888888c19.911111 0 35.555556-15.644444 35.555556-35.555555s-15.644444-35.555556-35.555556-35.555556h-56.888888z m184.888888 426.666667c-19.911111 0-35.555556 15.644444-35.555555 35.555555s15.644444 35.555556 35.555555 35.555556h56.888889c19.911111 0 35.555556-15.644444 35.555556-35.555556s-15.644444-35.555556-35.555556-35.555555h-56.888889z m0-426.666667c-19.911111 0-35.555556 15.644444-35.555555 35.555556s15.644444 35.555556 35.555555 35.555555h56.888889c19.911111 0 35.555556-15.644444 35.555556-35.555555s-15.644444-35.555556-35.555556-35.555556h-56.888889z m-51.2 213.333333l-109.511111-75.377777c-19.911111-12.8-45.511111-8.533333-59.733333 11.377777-4.266667 7.111111-7.111111 15.644444-7.111111 24.177778V459.377778c0 24.177778 18.488889 42.666667 42.666667 42.666666 8.533333 0 17.066667-2.844444 24.177777-7.111111l109.511111-75.377777c19.911111-12.8 24.177778-39.822222 11.377778-59.733334-2.844444-4.266667-7.111111-8.533333-11.377778-11.377778z"  horiz-adv-x="1024" />

    
    <glyph glyph-name="ic_pc_quote01" unicode="&#58880;" d="M117.76 344.746667L358.4 759.466667l44.373333-25.6-184.32-317.44c20.48 6.826667 40.96 10.24 63.146667 10.24 112.64 0 204.8-92.16 204.8-204.8s-92.16-204.8-204.8-204.8-204.8 92.16-204.8 204.8c0 46.08 15.36 88.746667 40.96 122.88z m460.8 0L819.2 759.466667l44.373333-25.6-184.32-317.44c20.48 6.826667 40.96 10.24 63.146667 10.24 112.64 0 204.8-92.16 204.8-204.8s-92.16-204.8-204.8-204.8-204.8 92.16-204.8 204.8c0 46.08 15.36 88.746667 40.96 122.88z"  horiz-adv-x="1024" />

    
    <glyph glyph-name="ic_pc_quote02" unicode="&#58881;" d="M906.24 431.786667L665.6 17.066667 621.226667 42.666667l184.32 317.44c-20.48-6.826667-40.96-10.24-63.146667-10.24-112.64 0-204.8 92.16-204.8 204.8s92.16 204.8 204.8 204.8 204.8-92.16 204.8-204.8c0-46.08-15.36-88.746667-40.96-122.88z m-460.8 0L204.8 17.066667 160.426667 42.666667l184.32 317.44c-20.48-6.826667-40.96-10.24-63.146667-10.24-112.64 0-204.8 92.16-204.8 204.8s92.16 204.8 204.8 204.8 204.8-92.16 204.8-204.8c0-46.08-15.36-88.746667-40.96-122.88z"  horiz-adv-x="1024" />

    
    <glyph glyph-name="ic_pc_video" unicode="&#58945;" d="M512 384m-426.666667 0a426.666667 426.666667 0 1 1 853.333334 0 426.666667 426.666667 0 1 1-853.333334 0ZM512-51.2C271.36-51.2 76.8 143.36 76.8 384S271.36 819.2 512 819.2 947.2 624.64 947.2 384 752.64-51.2 512-51.2z m0 853.333333C281.6 802.133333 93.866667 614.4 93.866667 384s187.733333-418.133333 418.133333-418.133333 418.133333 187.733333 418.133333 418.133333S742.4 802.133333 512 802.133333zM462.506667 244.053333c-3.413333 0-6.826667 0-11.946667 1.706667-11.946667 3.413333-22.186667 10.24-27.306667 20.48-3.413333 6.826667-6.826667 15.36-6.826666 22.186667V477.866667c0 25.6 20.48 44.373333 44.373333 44.373333 8.533333 0 15.36-1.706667 22.186667-6.826667l160.426666-93.866666c10.24-6.826667 17.066667-15.36 20.48-27.306667s1.706667-23.893333-5.12-34.133333c-3.413333-6.826667-8.533333-11.946667-15.36-15.36l-160.426666-93.866667c-3.413333-3.413333-11.946667-6.826667-20.48-6.826667z m0 262.826667c-15.36 0-27.306667-11.946667-27.306667-27.306667v-189.44c0-5.12 1.706667-10.24 3.413333-13.653333 3.413333-6.826667 10.24-10.24 17.066667-13.653333 6.826667-1.706667 15.36 0 20.48 3.413333l160.426667 93.866667c3.413333 1.706667 6.826667 5.12 10.24 10.24 3.413333 6.826667 5.12 13.653333 3.413333 20.48-1.706667 6.826667-6.826667 13.653333-13.653333 17.066666L477.866667 501.76c-5.12 3.413333-10.24 5.12-15.36 5.12z"  horiz-adv-x="1024" />

    
    <glyph glyph-name="ic_pc_game_voice" unicode="&#58944;" d="M512 832C264.533333 832 64 631.466667 64 384s200.533333-448 448-448 448 200.533333 448 448S759.466667 832 512 832z m19.2-704L384 256h-85.333333c-23.466667 0-42.666667 19.2-42.666667 42.666667v170.666666c0 23.466667 19.2 42.666667 42.666667 42.666667h85.333333l147.2 128v-512z m78.933333 46.933333v89.6c44.8 17.066667 78.933333 64 78.933334 119.466667s-32 102.4-78.933334 119.466667v89.6c89.6-19.2 157.866667-106.666667 157.866667-209.066667s-68.266667-189.866667-157.866667-209.066667z"  horiz-adv-x="1024" />

    
    <glyph glyph-name="bilibiliyouxi" unicode="&#58943;" d="M2124.587258-14.537396h-28.365651c-17.019391 2.836565-34.038781 0-51.058172 2.836565-11.34626 0-11.34626 0-11.34626 11.34626-2.836565 34.038781-5.67313 65.240997-8.509696 96.443214l-8.509695 85.096953-8.509695 76.587257c-2.836565 25.529086-5.67313 48.221607-8.509696 73.750693-2.836565 31.202216-8.509695 59.567867-11.34626 93.606648-2.836565 25.529086-8.509695 53.894737-11.34626 82.260388-5.67313 42.548476-11.34626 85.096953-17.019391 124.808864-5.67313 45.385042-14.182825 87.933518-22.692521 133.31856 0 8.509695 0 8.509695 5.67313 8.509695 31.202216 2.836565 62.404432 8.509695 96.443214 8.509695h11.34626c5.67313 0 8.509695-2.836565 8.509695-8.509695 0-22.692521 2.836565-45.385042 5.673131-68.077562 2.836565-36.875346 5.67313-76.587258 8.509695-110.626039 2.836565-25.529086 2.836565-48.221607 5.67313-70.914128 2.836565-39.711911 5.67313-76.587258 8.509695-116.299169 0-22.692521 2.836565-48.221607 5.673131-70.914127 2.836565-34.038781 5.67313-68.077562 8.509695-104.952909 2.836565-22.692521 2.836565-42.548476 5.67313-68.077562 2.836565-34.038781 5.67313-65.240997 8.509695-99.279778 2.836565-28.365651 5.67313-53.894737 8.509696-79.423823z m-1253.761773 794.238227h19.855955c8.509695 0 11.34626-2.836565 11.346261-11.34626 2.836565-39.711911 5.67313-79.423823 5.67313-119.135734 2.836565-42.548476 5.67313-85.096953 8.509695-130.481995l8.509696-119.135734c2.836565-42.548476 8.509695-87.933518 11.34626-130.481994 2.836565-34.038781 5.67313-68.077562 8.509695-99.279779l8.509696-93.606648c2.836565-25.529086 5.67313-53.894737 8.509695-79.423823 0-8.509695 0-8.509695-8.509695-8.509695-25.529086 0-48.221607 2.836565-73.750693 2.836565-5.67313 0-8.509695 2.836565-8.509695 8.509695-2.836565 11.34626 0 22.692521-2.836565 34.038782-2.836565 31.202216-5.67313 59.567867-8.509696 90.770083-2.836565 28.365651-5.67313 53.894737-8.509695 82.260387l-8.509695 76.587258c-2.836565 25.529086-5.67313 51.058172-8.509695 73.750693l-8.509696 68.077562c-2.836565 34.038781-8.509695 68.077562-14.182825 99.279778-2.836565 31.202216-8.509695 59.567867-14.182826 90.770083-5.67313 42.548476-14.182825 82.260388-19.855955 124.808865 0 8.509695-2.836565 17.019391-5.673131 28.365651 0 5.67313 0 8.509695 5.673131 8.509695 14.182825 2.836565 28.365651 5.67313 42.548476 5.67313 19.855956-2.836565 34.038781 0 51.058172-2.836565z m1026.836565-399.955679c28.365651 0 28.365651 0 34.038781-25.529086 5.67313-31.202216 8.509695-59.567867 14.182826-90.770083 2.836565-31.202216 8.509695-65.240997 11.34626-96.443213l8.509695-76.587258c2.836565-25.529086 5.67313-53.894737 8.509695-82.260387 0-17.019391 2.836565-31.202216 5.673131-45.385042 0-5.67313 0-8.509695-5.673131-8.509695-8.509695 0-17.019391-2.836565-28.36565-2.836565-17.019391-2.836565-34.038781-2.836565-51.058172-5.67313-8.509695 0-8.509695 0-11.346261 8.509695-17.019391 76.587258-31.202216 153.174515-45.385041 229.761773-8.509695 51.058172-19.855956 102.116343-28.365651 150.33795 0 8.509695-2.836565 14.182825-2.836565 19.855955 0 2.836565 0 5.67313 5.67313 8.509696 25.529086 8.509695 56.731302 14.182825 85.096953 17.01939z m-1160.155125 0c28.365651 0 28.365651 0 34.038781-25.529086 8.509695-39.711911 11.34626-82.260388 17.019391-121.972299 5.67313-39.711911 8.509695-79.423823 14.182825-119.135734 2.836565-25.529086 5.67313-53.894737 8.509696-82.260388 2.836565-19.855956 2.836565-39.711911 5.67313-59.567867v-8.509695c0-8.509695 0-8.509695-8.509695-11.34626-17.019391-2.836565-36.875346-2.836565-56.731302-5.67313-8.509695 0-14.182825 0-19.855956-2.836566-8.509695 0-8.509695 0-11.34626 8.509696-5.67313 31.202216-11.34626 59.567867-17.019391 93.606648l-42.548476 221.252077c-5.67313 28.365651-11.34626 59.567867-17.019391 87.933518 0 5.67313 0 8.509695 5.67313 8.509696 28.365651 8.509695 59.567867 14.182825 87.933518 17.01939z m391.445984-309.185595v-127.64543c0-5.67313 0-8.509695-8.509696-8.509695h-76.587257c-8.509695 0-8.509695 0-11.346261 8.509695l-8.509695 93.606649-8.509695 85.096953c-2.836565 28.365651-5.67313 59.567867-8.509696 87.933518-2.836565 19.855956-2.836565 39.711911-5.67313 59.567867-2.836565 25.529086-5.67313 51.058172-5.67313 76.587257 0 11.34626 0 11.34626 11.34626 14.182826 28.365651 2.836565 56.731302 2.836565 85.096953 2.836565 8.509695 0 14.182825 0 19.855956-2.836565 8.509695-2.836565 8.509695-2.836565 8.509695-11.346261 0-17.019391 2.836565-34.038781 2.836565-53.894737v-59.567867c2.836565-53.894737 2.836565-110.626039 5.673131-164.520775z m1157.318559-5.67313v-121.9723c0-5.67313-2.836565-8.509695-8.509695-8.509695h-79.423823c-8.509695 0-8.509695 0-8.509695 8.509695-2.836565 39.711911-8.509695 82.260388-11.346261 121.9723-2.836565 36.875346-5.67313 76.587258-8.509695 110.626038-2.836565 39.711911-8.509695 76.587258-11.34626 116.299169 0 19.855956-2.836565 39.711911-5.67313 59.567867 0 8.509695 0 8.509695 8.509695 11.346261 17.019391 0 34.038781 2.836565 51.058172 2.836565s34.038781 0 51.058171-2.836565c14.182825-2.836565 14.182825-2.836565 17.019391-17.019391 2.836565-42.548476 0-87.933518 2.836565-133.318559 2.836565-48.221607 2.836565-96.443213 2.836565-147.501385zM1869.296399 592.487535h25.529086c5.67313 0 8.509695-2.836565 8.509695-8.509696l8.509695-76.587257c2.836565-19.855956 5.67313-42.548476 5.673131-59.567867 0-14.182825 0-14.182825-11.346261-14.182826s-22.692521 0-34.038781-2.836565c-8.509695 0-8.509695 0-11.34626 8.509695-5.67313 36.875346-8.509695 76.587258-14.182826 113.462604 0 11.34626-2.836565 19.855956-5.67313 31.202216 0 5.67313 0 8.509695 8.509695 8.509696 8.509695-2.836565 17.019391-2.836565 19.855956 0z m-1157.31856 0h22.692521c5.67313 0 8.509695-2.836565 8.509695-8.509696 0-11.34626 2.836565-22.692521 2.836565-34.038781 2.836565-36.875346 8.509695-73.750693 11.346261-107.789474 0-8.509695 0-8.509695-8.509695-8.509695-14.182825 0-25.529086-2.836565-39.711912-2.836565-8.509695 0-8.509695 0-8.509695 8.509695-2.836565 25.529086-5.67313 53.894737-8.509695 79.423823-2.836565 22.692521-5.67313 42.548476-8.509696 65.240997 0 5.67313 0 8.509695 5.673131 8.509696 8.509695 0 17.019391-2.836565 22.69252 0z m408.465374-102.116344v-68.077562c0-8.509695 0-11.34626-11.34626-8.509695-11.34626 0-25.529086 0-36.875346 2.836565-8.509695 0-8.509695 0-8.509696 8.509695 0 28.365651 0 56.731302-2.836565 85.096953 0 19.855956 0 36.875346-2.836565 56.731302 0 8.509695 0 8.509695 8.509695 8.509695 14.182825 0 28.365651 0 42.548477-2.836565 8.509695 0 8.509695 0 8.509695-11.34626 2.836565-22.692521 2.836565-45.385042 2.836565-70.914128z m1160.155125 0v-68.077562c0-8.509695 0-8.509695-8.509695-8.509695h-39.711912c-5.67313 0-8.509695 2.836565-8.509695 8.509695v2.836565c0 42.548476-2.836565 87.933518-2.836565 133.318559v8.509696c0 8.509695 0 8.509695 8.509695 8.509695 11.34626 0 25.529086 0 36.875346-2.836565 17.019391 0 11.34626-2.836565 11.346261-17.019391 2.836565-22.692521 2.836565-42.548476 2.836565-65.240997zM680.775623 436.476454c0-11.34626 0-11.34626-11.34626-17.01939-8.509695-2.836565-17.019391-2.836565-25.529086-5.67313-8.509695 0-8.509695 0-8.509695 5.67313-8.509695 48.221607-17.019391 93.606648-25.529086 141.828255 0 8.509695 0 11.34626 8.509695 11.34626 11.34626 2.836565 25.529086 2.836565 36.875346 5.67313 8.509695 0 8.509695 0 8.509696-8.509695l8.509695-51.058172c2.836565-25.529086 5.67313-53.894737 8.509695-79.423823v-2.836565z m1086.404432 136.155125c17.019391 2.836565 31.202216 5.67313 48.221607 8.509695 5.67313 0 8.509695-2.836565 8.509695-8.509695 2.836565-17.019391 5.67313-36.875346 8.509696-53.894737 2.836565-25.529086 8.509695-53.894737 8.509695-79.423823v-8.509695c0-5.67313-2.836565-5.67313-5.67313-8.509695l-34.038781-8.509695c-5.67313 0-8.509695 0-8.509696 5.67313-2.836565 17.019391-8.509695 36.875346-8.509695 56.731302l-17.019391 93.606648v2.836565z m-723.324099-107.789474v-45.385041c0-5.67313-2.836565-8.509695-8.509696-8.509696-11.34626 0-22.692521 0-31.202216-2.836565-5.67313 0-5.67313 0-8.509695 5.673131-2.836565 14.182825-2.836565 28.365651-2.836565 42.548476-2.836565 28.365651-2.836565 53.894737-5.67313 82.260388v19.855955c0 2.836565 0 5.67313 5.67313 5.673131 14.182825 0 28.365651 2.836565 42.548476 2.836565 8.509695 0 8.509695 0 8.509696-8.509696v-17.01939c-2.836565-22.692521-2.836565-51.058172 0-76.587258z m1157.318559 17.019391v-56.731302c0-8.509695 0-11.34626-11.34626-11.34626s-19.855956 0-28.365651-2.836566c-5.67313 0-8.509695 0-8.509695 8.509696 0 25.529086-2.836565 51.058172-5.673131 76.587257 0 19.855956-2.836565 42.548476-5.67313 62.404432v8.509696c0 2.836565 0 5.67313 5.67313 8.509695 14.182825 0 25.529086 2.836565 39.711912 2.836565 8.509695 0 8.509695 0 8.509695-8.509695 5.67313-34.038781 5.67313-62.404432 5.67313-87.933518zM314.858726-23.047091c22.692521 11.34626 138.99169 99.279778 147.501385 113.462603-56.731302 22.692521-110.626039 45.385042-173.030471 62.404433 8.509695-62.404432 17.019391-119.135734 25.529086-175.867036z m326.204986 164.520775c17.019391-17.019391 17.019391-39.711911 11.34626-62.404432-5.67313-22.692521-17.019391-42.548476-34.038781-59.567867-25.529086-28.365651-56.731302-48.221607-90.770083-65.240997-56.731302-31.202216-119.135734-51.058172-181.540166-62.404432-45.385042-8.509695-93.606648-14.182825-138.99169-17.019391H133.31856c-8.509695 0-8.509695 0-11.346261 11.34626-2.836565 31.202216-5.67313 65.240997-8.509695 96.443214-2.836565 36.875346-8.509695 73.750693-11.346261 110.626039-2.836565 25.529086-5.67313 53.894737-8.509695 79.423822-2.836565 31.202216-8.509695 62.404432-11.34626 93.606648-2.836565 28.365651-5.67313 59.567867-8.509695 87.933518-2.836565 31.202216-8.509695 65.240997-11.346261 96.443214-5.67313 31.202216-8.509695 62.404432-14.182825 93.606648-2.836565 51.058172-11.34626 102.116343-19.855956 150.33795C17.019391 737.152355 11.34626 776.864266 0 816.576177c0 5.67313 0 8.509695 5.67313 8.509696 48.221607 19.855956 93.606648 39.711911 141.828255 59.567867l25.529086 8.509695c5.67313 0 8.509695 0 8.509695-5.67313v-238.271468c0-51.058172 2.836565-102.116343 8.509695-153.174516l8.509696-119.135734c2.836565-39.711911 8.509695-79.423823 11.34626-116.299169 0-8.509695 0-8.509695 8.509695-8.509695 17.019391 2.836565 34.038781 2.836565 51.058172 2.836565 53.894737 0 107.789474-8.509695 158.847646-19.855956 45.385042-11.34626 90.770083-25.529086 133.318559-45.385041 22.692521-8.509695 42.548476-19.855956 59.567867-34.038781 11.34626-2.836565 14.182825-8.509695 19.855956-14.182826z m978.614958-59.567867c2.836565 2.836565 2.836565 5.67313 0 8.509695-8.509695 2.836565-17.019391 8.509695-25.529086 11.346261-42.548476 17.019391-85.096953 34.038781-130.481994 48.221607-2.836565 0-8.509695 2.836565-11.34626 0 8.509695-59.567867 17.019391-116.299169 25.529086-173.030471 2.836565 0 5.67313 0 5.67313 2.836565 39.711911 28.365651 79.423823 56.731302 119.135734 87.933518 5.67313 2.836565 11.34626 8.509695 17.01939 14.182825z m173.030471 68.077563c19.855956-17.019391 28.365651-39.711911 22.692521-68.077563-5.67313-22.692521-17.019391-42.548476-31.202216-59.567867-25.529086-25.529086-53.894737-48.221607-85.096953-65.240997-62.404432-34.038781-127.645429-56.731302-195.722992-68.077562-36.875346-8.509695-76.587258-11.34626-113.462603-17.019391-22.692521 2.836565-45.385042 2.836565-70.914128 2.836565h-28.365651c-5.67313 0-8.509695 0-8.509695 8.509695l-8.509695 85.096953c-2.836565 28.365651-5.67313 59.567867-8.509696 87.933518-2.836565 25.529086-5.67313 53.894737-8.509695 82.260388L1248.088643 215.224377c-2.836565 25.529086-5.67313 48.221607-8.509696 70.914127-2.836565 28.365651-8.509695 59.567867-11.34626 87.933518-2.836565 25.529086-8.509695 53.894737-11.34626 82.260388-2.836565 28.365651-8.509695 59.567867-11.346261 87.933518-5.67313 36.875346-11.34626 76.587258-17.01939 113.462604-8.509695 53.894737-17.019391 104.952909-31.202216 158.847645v8.509696c0 5.67313 0 8.509695 5.67313 8.509695 51.058172 19.855956 99.279778 42.548476 150.33795 59.567867 5.67313 0 14.182825 0 19.855956 2.836565 5.67313 0 8.509695 0 8.509695-8.509695-2.836565-36.875346 0-73.750693-2.836565-107.789474V669.074792c0-34.038781 0-70.914127 2.836565-107.789473 2.836565-48.221607 5.67313-93.606648 8.509695-141.828255l8.509695-102.116344c0-17.019391 2.836565-36.875346 5.673131-56.731302 0-8.509695 0-8.509695 11.34626-8.509695 17.019391 2.836565 36.875346 5.67313 53.894737 2.836565 65.240997 0 124.808864-11.34626 187.213296-28.365651 42.548476-11.34626 82.260388-25.529086 119.135734-45.385041 25.529086-5.67313 42.548476-17.019391 56.731302-31.202216z m2059.346261 422.648199c34.038781-28.365651 87.933518-76.587258 121.972299-110.626039l-36.875346-39.711911c-34.038781 34.038781-85.096953 85.096953-119.135735 113.462604l34.038782 36.875346z m-82.260388 11.34626s2.836565-79.423823 8.509695-156.01108l2.836565-36.875346 258.127424 31.202216 5.67313-56.731302-258.127424-31.202216c8.509695-76.587258 17.019391-136.155125 31.202216-187.213297 53.894737 51.058172 99.279778 107.789474 136.155125 173.030471l45.385042-31.202216c-48.221607-79.423823-99.279778-144.66482-164.520776-204.232687 11.34626-31.202216 25.529086-59.567867 39.711911-79.423822 22.692521-34.038781 39.711911-45.385042 59.567867-45.385042s28.365651 11.34626 39.711912 59.567867c5.67313 25.529086 14.182825 68.077562 17.01939 93.606648l51.058172-22.692521c-5.67313-36.875346-14.182825-73.750693-22.692521-102.116343-17.019391-62.404432-48.221607-90.770083-87.933518-90.770083-39.711911 0-70.914127 17.019391-110.626038 82.260388-11.34626 19.855956-22.692521 42.548476-34.038782 68.077562-51.058172-39.711911-107.789474-76.587258-175.867036-110.626039l-28.365651 51.058172c68.077562 36.875346 130.481994 76.587258 184.376732 119.135734-17.019391 59.567867-28.365651 130.481994-39.711912 224.088643l-107.789473-11.346261-8.509696 59.567867 110.626039 11.346261c0 17.019391-2.836565 34.038781-2.836565 51.058171-2.836565 51.058172-8.509695 150.33795-8.509695 150.337951l59.567867-8.509696z m-374.426593-195.722991c28.365651-42.548476 65.240997-93.606648 99.279778-150.33795 25.529086 65.240997 45.385042 133.31856 56.731302 207.069252H3347.146814v59.567867h266.63712v-59.567867c-17.019391-96.443213-42.548476-184.376731-76.587258-266.63712 34.038781-53.894737 65.240997-104.952909 85.096953-141.828254l-48.221607-34.038782c-17.019391 31.202216-42.548476 70.914127-68.077562 113.462604-36.875346-73.750693-85.096953-141.828255-141.828255-207.069252l-39.711911 51.058172c59.567867 65.240997 107.789474 136.155125 147.501385 215.578947-42.548476 65.240997-85.096953 133.31856-116.299169 181.540167l39.711911 31.202216z m-351.734072-212.742383v51.058172l76.587258 76.587258h-164.520776v34.038781l-8.509695-14.182826-51.058172 28.365651c51.058172 70.914127 93.606648 156.01108 116.299169 235.434903l56.731302-8.509695c-8.509695-28.365651-17.019391-59.567867-31.202216-87.933518h181.540166v-56.731302h-207.069252c-14.182825-25.529086-25.529086-51.058172-42.548476-76.587257h218.415512v-56.731302l-90.770083-87.933518v-36.875347h124.808864v-56.731302h-124.808864v-141.828254c0-65.240997-17.019391-79.423823-82.260388-79.423823h-68.077562l-11.346261 56.731302h51.058172c45.385042 0 53.894737 8.509695 53.894737 45.385041v119.135734h-113.462604v56.731302h116.299169z m-246.781163 289.32964l-42.548477 113.462604 56.731302 14.182826c5.67313-17.019391 34.038781-90.770083 48.221607-124.808865h73.750692V413.783934h-147.501385v-107.789474h127.64543c0-17.019391-8.509695-295.00277-11.346261-317.695291-2.836565-59.567867-19.855956-79.423823-79.423823-79.423823h-59.567867l-11.34626 56.731302h56.731302c39.711911 0 39.711911 11.34626 42.548476 48.221607 0 22.692521 8.509695 207.069252 8.509696 235.434903H2779.833795c-8.509695-175.867036-34.038781-258.127424-110.626039-363.080333l-48.221606 25.529086c85.096953 113.462604 99.279778 192.886427 107.789473 377.263158 0 11.34626 0 85.096953 2.836565 121.972299h-48.221606v53.894737h113.462604z m-232.598338 102.116344c31.202216-22.692521 87.933518-70.914127 119.135734-93.606648l-34.038781-45.385042c-28.365651 25.529086-90.770083 76.587258-116.299169 96.443213l31.202216 42.548477z m39.711911-377.263158l56.731302-17.019391c-17.019391-42.548476-79.423823-235.434903-93.606648-283.656509l-59.567867 17.01939c17.019391 48.221607 82.260388 241.108033 96.443213 283.65651z m-68.077562 204.232687c36.875346-25.529086 96.443213-73.750693 130.481994-99.279779l-36.875346-48.221606c-34.038781 28.365651-93.606648 79.423823-130.481995 104.952908l36.875347 42.548477z"  horiz-adv-x="4056" />

    
    <glyph glyph-name="ic_pc_massage" unicode="&#58942;" d="M832.853333 182.613333L785.066667 274.773333v146.773334 3.413333 6.826667c0 139.946667-105.813333 256-238.933334 273.066666V742.4c0 20.48-17.066667 40.96-40.96 40.96-20.48 0-40.96-17.066667-40.96-40.96v-37.546667c-133.12-20.48-235.52-133.12-235.52-273.066666v-157.013334l-47.786666-92.16c-27.306667-54.613333 10.24-116.053333 71.68-116.053333h174.08c0-44.373333 34.133333-78.506667 78.506666-78.506667 44.373333 0 78.506667 34.133333 78.506667 78.506667h177.493333c61.44-3.413333 98.986667 61.44 71.68 116.053333z m-566.613333-30.72L307.2 233.813333c6.826667 13.653333 10.24 27.306667 10.24 40.96V418.133333v3.413334V431.786667c0 102.4 85.333333 187.733333 187.733333 187.733333s187.733333-85.333333 187.733334-187.733333V274.773333c0-13.653333 3.413333-27.306667 10.24-40.96l44.373333-78.506666H266.24z"  horiz-adv-x="1024" />

    
    <glyph glyph-name="ic_pc_zhuzhan" unicode="&#58941;" d="M298.666667 721.066667c12.8 8.533333 29.866667 8.533333 42.666666 0 8.533333-4.266667 17.066667-12.8 25.6-21.333334L469.333333 605.866667h72.533334l102.4 93.866666c8.533333 8.533333 17.066667 17.066667 25.6 21.333334 25.6 4.266667 38.4 4.266667 55.466666-4.266667 12.8-8.533333 21.333333-21.333333 25.6-38.4 0-12.8-4.266667-25.6-12.8-34.133333l-21.333333-21.333334-12.8-12.8H768c29.866667 0 55.466667-12.8 76.8-34.133333s34.133333-46.933333 34.133333-81.066667v-307.2c0-17.066667 0-29.866667-4.266666-46.933333-8.533333-29.866667-25.6-59.733333-51.2-76.8-17.066667-12.8-38.4-17.066667-59.733334-17.066667H285.866667c-17.066667 0-29.866667 0-46.933334 4.266667-29.866667 8.533333-55.466667 25.6-72.533333 55.466667-12.8 17.066667-17.066667 38.4-17.066667 59.733333V473.6v42.666667c8.533333 51.2 51.2 93.866667 102.4 93.866666h68.266667c-8.533333 4.266667-17.066667 17.066667-29.866667 25.6-12.8 12.8-17.066667 25.6-17.066666 42.666667 4.266667 17.066667 12.8 34.133333 25.6 42.666667zM290.133333 512c-21.333333-4.266667-34.133333-17.066667-42.666666-38.4v-277.333333c0-25.6 12.8-46.933333 34.133333-55.466667 8.533333-4.266667 12.8-4.266667 21.333333-4.266667H725.333333c21.333333 0 38.4 12.8 51.2 29.866667 4.266667 12.8 4.266667 21.333333 4.266667 34.133333v234.666667 25.6c-4.266667 17.066667-17.066667 29.866667-34.133333 38.4-8.533333 12.8-21.333333 12.8-34.133334 12.8H290.133333z m81.066667-85.333333c12.8 0 25.6-4.266667 38.4-12.8 12.8-8.533333 17.066667-25.6 17.066667-42.666667v-55.466667c0-12.8-4.266667-25.6-12.8-34.133333-12.8-12.8-29.866667-21.333333-46.933334-21.333333-17.066667 0-34.133333 12.8-42.666666 25.6-4.266667 12.8-8.533333 25.6-8.533334 38.4v55.466666c8.533333 25.6 25.6 42.666667 55.466667 46.933334z m277.333333 0c12.8 0 29.866667-4.266667 38.4-12.8 12.8-8.533333 17.066667-25.6 17.066667-38.4v-55.466667c0-12.8 0-25.6-8.533333-38.4-8.533333-17.066667-25.6-25.6-42.666667-25.6s-34.133333 8.533333-42.666667 25.6c-8.533333 12.8-8.533333 25.6-8.533333 38.4v55.466667c0 25.6 21.333333 46.933333 46.933333 51.2z"  horiz-adv-x="1024" />

    
    <glyph glyph-name="ic_pc_footer_weibo" unicode="&#58938;" d="M453.973333 271.36c-3.413333-6.826667-13.653333-10.24-23.893333-6.826667-6.826667 3.413333-10.24 10.24-6.826667 20.48 3.413333 6.826667 13.653333 10.24 23.893334 6.826667 6.826667-3.413333 10.24-13.653333 6.826666-20.48M409.6 220.16c-13.653333-20.48-40.96-27.306667-61.44-20.48-20.48 10.24-27.306667 30.72-13.653333 51.2s40.96 27.306667 61.44 20.48c20.48-10.24 27.306667-30.72 13.653333-51.2m51.2 136.533333c-64.853333 17.066667-136.533333-13.653333-163.84-68.266666-27.306667-54.613333 0-112.64 64.853333-133.12 68.266667-20.48 146.773333 10.24 174.08 68.266666 23.893333 58.026667-10.24 116.053333-75.093333 133.12m310.613333 88.746667c13.653333-3.413333 30.72 3.413333 34.133334 17.066667 10.24 30.72 3.413333 68.266667-20.48 95.573333-27.306667 23.893333-68.266667 34.133333-102.4 27.306667-13.653333-3.413333-23.893333-17.066667-20.48-30.72 3.413333-13.653333 17.066667-20.48 30.72-20.48 17.066667 3.413333 37.546667 0 47.786666-13.653334 13.653333-13.653333 17.066667-30.72 10.24-47.786666-3.413333-10.24 6.826667-23.893333 20.48-27.306667m95.573334 180.906667c-54.613333 54.613333-133.12 75.093333-204.8 61.44-17.066667-3.413333-27.306667-20.48-23.893334-34.133334 3.413333-17.066667 20.48-27.306667 37.546667-23.893333 51.2 10.24 109.226667-3.413333 146.773333-44.373333 37.546667-37.546667 47.786667-92.16 30.72-139.946667-6.826667-13.653333 3.413333-30.72 20.48-37.546667 17.066667-3.413333 34.133333 3.413333 40.96 17.066667 20.48 68.266667 3.413333 143.36-47.786666 201.386667M447.146667 121.173333c-136.533333-13.653333-252.586667 44.373333-262.826667 126.293334-10.24 81.92 95.573333 160.426667 228.693333 170.666666 136.533333 13.653333 252.586667-44.373333 262.826667-126.293333 10.24-81.92-92.16-157.013333-228.693333-170.666667m269.653333 273.066667c-10.24 3.413333-20.48 6.826667-13.653333 20.48 13.653333 30.72 13.653333 58.026667 0 75.093333-27.306667 34.133333-98.986667 34.133333-184.32 0 0 0-27.306667-10.24-20.48 10.24 13.653333 37.546667 10.24 71.68-10.24 88.746667-44.373333 40.96-167.253333 0-269.653334-95.573333C146.773333 421.546667 102.4 346.453333 102.4 281.6c0-126.293333 170.666667-204.8 341.333333-204.8 221.866667 0 375.466667 109.226667 375.466667 204.8 0 58.026667-54.613333 98.986667-102.4 112.64"  horiz-adv-x="1024" />

    
    <glyph glyph-name="ic_pc_footer_dynamic" unicode="&#58939;" d="M607.573333 329.386667c-17.066667 0-30.72 10.24-37.546666 23.893333-6.826667 13.653333-3.413333 34.133333 10.24 44.373333s30.72 13.653333 44.373333 10.24c13.653333-6.826667 23.893333-20.48 23.893333-37.546666 0-10.24-3.413333-20.48-10.24-27.306667-6.826667-10.24-17.066667-13.653333-30.72-13.653333z m-201.386666-34.133334c-3.413333-3.413333-10.24-6.826667-13.653334-6.826666s-10.24 3.413333-13.653333 6.826666c-3.413333 3.413333-6.826667 10.24-6.826667 13.653334 0 6.826667 3.413333 10.24 6.826667 13.653333l37.546667 37.546667-40.96 30.72c-6.826667 3.413333-10.24 10.24-6.826667 17.066666s3.413333 13.653333 10.24 17.066667c6.826667 3.413333 13.653333 3.413333 20.48-3.413333l61.44-44.373334c3.413333-3.413333 6.826667-6.826667 6.826667-13.653333s-3.413333-10.24-6.826667-13.653333l-54.613333-54.613334zM853.333333 472.746667c3.413333 10.24 0 23.893333-10.24 30.72-27.306667 37.546667-64.853333 71.68-105.813333 92.16-20.48 10.24-40.96 20.48-64.853333 23.893333-23.893333 6.826667-47.786667 10.24-71.68 10.24-13.653333 3.413333-54.613333 78.506667-64.853334 92.16-6.826667 3.413333-10.24 3.413333-17.066666 3.413333-23.893333-6.826667-47.786667-13.653333-71.68-23.893333-20.48-10.24-40.96-23.893333-61.44-40.96-17.066667-17.066667-34.133333-34.133333-51.2-54.613333-13.653333-20.48-27.306667-54.613333-34.133334-71.68-23.893333-13.653333-95.573333-40.96-95.573333-40.96-10.24-3.413333-17.066667-10.24-27.306667-17.066667-6.826667-10.24-10.24-20.48-10.24-34.133333 0-23.893333 3.413333-47.786667 6.826667-68.266667 6.826667-20.48 13.653333-44.373333 20.48-64.853333 10.24-20.48 20.48-40.96 34.133333-58.026667 17.066667-20.48 34.133333-37.546667 51.2-54.613333-3.413333-34.133333 0-64.853333 3.413334-98.986667 0-10.24 3.413333-17.066667 10.24-23.893333 27.306667-20.48 58.026667-30.72 88.746666-30.72 44.373333-3.413333 88.746667 3.413333 133.12 17.066666l61.44 30.72h3.413334l92.16-34.133333c6.826667 0 17.066667 0 23.893333 3.413333 6.826667 6.826667 13.653333 13.653333 20.48 23.893334 23.893333 37.546667 44.373333 78.506667 54.613333 122.88 3.413333 20.48 6.826667 44.373333 6.826667 64.853333 0 20.48-3.413333 44.373333-10.24 64.853333v10.24c6.826667 6.826667 78.506667 95.573333 85.333333 126.293334z"  horiz-adv-x="1024" />

    
    <glyph glyph-name="ic_pc_footer_service" unicode="&#58940;" d="M170.666667 261.12c-20.48 6.826667-34.133333 27.306667-34.133334 51.2V384c0 23.893333 17.066667 44.373333 34.133334 51.2v37.546667c0 92.16 75.093333 167.253333 170.666666 167.253333h337.92c92.16 0 167.253333-75.093333 167.253334-167.253333v-37.546667c20.48-6.826667 37.546667-27.306667 37.546666-51.2v-71.68c0-30.72-23.893333-54.613333-54.613333-54.613333h-27.306667c-17.066667 0-27.306667 13.653333-27.306666 27.306666v126.293334c0 13.653333 6.826667 20.48 17.066666 27.306666v34.133334c0 61.44-51.2 112.64-112.64 112.64H341.333333c-61.44 0-112.64-51.2-112.64-112.64v-34.133334c10.24-3.413333 17.066667-17.066667 17.066667-27.306666v-126.293334c0-13.653333-6.826667-20.48-17.066667-27.306666v-27.306667c0-61.44 51.2-112.64 112.64-112.64h184.32c6.826667 10.24 17.066667 17.066667 30.72 17.066667h44.373334c20.48 0 34.133333-17.066667 34.133333-34.133334v-17.066666c0-20.48-17.066667-34.133333-34.133333-34.133334h-44.373334c-13.653333 0-23.893333 6.826667-30.72 17.066667H341.333333c-92.16 0-167.253333 75.093333-167.253333 167.253333v27.306667H170.666667z m174.08 293.546667h327.68c51.2 0 92.16-40.96 92.16-92.16V247.466667c0-51.2-40.96-92.16-92.16-92.16h-327.68c-51.2 0-92.16 40.96-92.16 92.16v218.453333c3.413333 51.2 40.96 88.746667 92.16 88.746667z m54.613333-136.533334c-23.893333 0-44.373333-20.48-44.373333-44.373333v-34.133333c0-23.893333 20.48-44.373333 44.373333-44.373334 23.893333 0 44.373333 20.48 44.373333 44.373334v34.133333c0 27.306667-17.066667 44.373333-44.373333 44.373333z m218.453333 0c-23.893333 0-44.373333-20.48-44.373333-44.373333v-34.133333c0-23.893333 20.48-44.373333 44.373333-44.373334 23.893333 0 44.373333 20.48 44.373334 44.373334v34.133333c3.413333 27.306667-20.48 44.373333-44.373334 44.373333z m-163.84 238.933334h-109.226666c0 30.72 23.893333 54.613333 54.613333 54.613333 30.72 0 54.613333-23.893333 54.613333-54.613333z m218.453334 0h-109.226667c0 30.72 23.893333 54.613333 54.613333 54.613333 30.72 0 54.613333-23.893333 54.613334-54.613333z"  horiz-adv-x="1024" />

    
    <glyph glyph-name="ic_pc_edit" unicode="&#58932;" d="M812.088889 130.844444H503.466667l322.844444 322.844445c32.711111 32.711111 32.711111 86.755556 0 120.888889l-126.577778 126.577778C684.088889 716.8 662.755556 725.333333 640 725.333333c-21.333333 0-44.088889-8.533333-59.733333-25.6l-384-382.577777c-15.644444-15.644444-25.6-38.4-25.6-59.733334v-126.577778c0-46.933333 38.4-85.333333 85.333333-85.333333h556.088889c22.755556 0 42.666667 18.488889 42.666667 42.666667s-18.488889 42.666667-42.666667 42.666666zM640 640l126.577778-126.577778-61.155556-61.155555-126.577778 126.577777L640 640zM300.088889 130.844444h-42.666667v126.577778l261.688889 261.688889 126.577778-126.577778L384 130.844444h-83.911111z"  horiz-adv-x="1024" />

    
    <glyph glyph-name="ic_pc_del" unicode="&#58933;" d="M870.4 674.133333c29.013333 0 51.2-22.186667 51.2-51.2s-22.186667-51.2-51.2-51.2H170.666667c-29.013333 0-51.2 22.186667-51.2 51.2s22.186667 51.2 51.2 51.2h290.133333V742.4c0 29.013333 22.186667 51.2 51.2 51.2s51.2-22.186667 51.2-51.2v-68.266667h307.2zM477.866667 196.266667c0-29.013333-22.186667-51.2-51.2-51.2s-51.2 22.186667-51.2 51.2V469.333333c0 29.013333 22.186667 51.2 51.2 51.2s51.2-22.186667 51.2-51.2v-273.066666z m307.2 324.266666c29.013333 0 51.2-22.186667 51.2-51.2v-443.733333c0-29.013333-22.186667-51.2-51.2-51.2H238.933333c-29.013333 0-51.2 22.186667-51.2 51.2V469.333333c0 29.013333 22.186667 51.2 51.2 51.2s51.2-22.186667 51.2-51.2v-392.533333h443.733334V469.333333c0 29.013333 22.186667 51.2 51.2 51.2z m-136.533334-324.266666c0-29.013333-22.186667-51.2-51.2-51.2s-51.2 22.186667-51.2 51.2V469.333333c0 29.013333 22.186667 51.2 51.2 51.2s51.2-22.186667 51.2-51.2v-273.066666z"  horiz-adv-x="1024" />

    
    <glyph glyph-name="ic_pc_game_iOS" unicode="&#58934;" d="M755.2 358.4c0 68.266667 38.4 128 98.133333 162.133333-38.4 51.2-98.133333 81.066667-162.133333 85.333334-68.266667 8.533333-136.533333-38.4-170.666667-38.4s-93.866667 34.133333-149.333333 34.133333c-76.8 0-145.066667-42.666667-183.466667-106.666667-76.8-132.266667-21.333333-324.266667 55.466667-430.933333C281.6 12.8 324.266667-42.666667 384-42.666667c55.466667 0 76.8 34.133333 145.066667 34.133334s85.333333-34.133333 145.066666-34.133334 98.133333 51.2 136.533334 106.666667c25.6 38.4 46.933333 76.8 59.733333 119.466667-68.266667 29.866667-115.2 98.133333-115.2 174.933333z m-110.933333 315.733333c34.133333 38.4 51.2 85.333333 46.933333 136.533334-51.2-4.266667-98.133333-25.6-132.266667-64-34.133333-34.133333-51.2-85.333333-46.933333-132.266667 51.2 0 98.133333 21.333333 132.266667 59.733333z"  horiz-adv-x="1024" />

    
    <glyph glyph-name="ic_pc_newbuilt" unicode="&#58935;" d="M512-25.6C285.013333-25.6 102.4 157.013333 102.4 384S285.013333 793.6 512 793.6s409.6-182.613333 409.6-409.6-182.613333-409.6-409.6-409.6z m0 102.4c168.96 0 307.2 138.24 307.2 307.2s-138.24 307.2-307.2 307.2-307.2-138.24-307.2-307.2 138.24-307.2 307.2-307.2z m-51.2 358.4v102.4c0 29.013333 22.186667 51.2 51.2 51.2s51.2-22.186667 51.2-51.2v-102.4h102.4c29.013333 0 51.2-22.186667 51.2-51.2s-22.186667-51.2-51.2-51.2h-102.4v-102.4c0-29.013333-22.186667-51.2-51.2-51.2s-51.2 22.186667-51.2 51.2v102.4h-102.4c-29.013333 0-51.2 22.186667-51.2 51.2s22.186667 51.2 51.2 51.2h102.4z"  horiz-adv-x="1024" />

    
    <glyph glyph-name="ic_pc_game_Android" unicode="&#58936;" d="M648.533333 499.2c-21.333333 0-38.4 12.8-46.933333 29.866667-8.533333 17.066667-4.266667 38.4 8.533333 55.466666 12.8 12.8 34.133333 17.066667 55.466667 12.8 17.066667-8.533333 29.866667-25.6 29.866667-46.933333 0-29.866667-21.333333-51.2-46.933334-51.2z m-234.666666 0c-17.066667 0-38.4 12.8-42.666667 29.866667-8.533333 17.066667-4.266667 38.4 8.533333 51.2s34.133333 17.066667 55.466667 12.8 29.866667-25.6 29.866667-46.933334c0-12.8-4.266667-25.6-12.8-34.133333-12.8-8.533333-25.6-12.8-38.4-12.8z m358.4 277.333333c4.266667 4.266667 4.266667 8.533333 4.266666 12.8 0 4.266667-4.266667 8.533333-8.533333 12.8-4.266667 4.266667-8.533333 4.266667-17.066667 4.266667-4.266667 0-8.533333-4.266667-12.8-8.533333l-64-93.866667c-42.666667 17.066667-89.6 25.6-136.533333 21.333333-46.933333 4.266667-93.866667-4.266667-136.533333-21.333333L332.8 802.133333c-8.533333 8.533333-21.333333 12.8-29.866667 4.266667-8.533333-4.266667-12.8-17.066667-8.533333-25.6l59.733333-89.6c-106.666667-42.666667-179.2-145.066667-183.466666-260.266667h725.333333c-4.266667 115.2-76.8 217.6-183.466667 260.266667l59.733334 85.333333zM170.666667 42.666667c0-46.933333 38.4-85.333333 85.333333-85.333334h554.666667c46.933333 0 85.333333 38.4 85.333333 85.333334v307.2H170.666667V42.666667z"  horiz-adv-x="1024" />

    
    <glyph glyph-name="ic_pc_UID" unicode="&#58937;" d="M853.333333 640c56.32 0 102.4-46.08 102.4-102.4v-307.2c0-56.32-46.08-102.4-102.4-102.4H170.666667c-56.32 0-102.4 46.08-102.4 102.4V537.6c0 56.32 46.08 102.4 102.4 102.4h682.666666z m-22.186666-319.146667c6.826667 20.48 10.24 40.96 8.533333 63.146667 0 23.893333-3.413333 46.08-10.24 68.266667-5.12 18.773333-15.36 34.133333-27.306667 47.786666-11.946667 11.946667-27.306667 22.186667-44.373333 27.306667-18.773333 5.12-37.546667 6.826667-56.32 5.12h-107.52v-291.84h110.933333c17.066667 0 35.84 1.706667 52.906667 6.826667 15.36 5.12 29.013333 11.946667 40.96 23.893333 15.36 13.653333 25.6 30.72 32.426667 49.493333z m-75.093334 146.773334c8.533333-8.533333 13.653333-17.066667 17.066667-29.013334 5.12-17.066667 6.826667-34.133333 6.826667-52.906666s-1.706667-35.84-6.826667-52.906667c-1.706667-10.24-8.533333-20.48-15.36-29.013333-6.826667-5.12-15.36-10.24-23.893333-11.946667-11.946667-1.706667-23.893333-3.413333-35.84-3.413333h-44.373334V482.986667h27.306667c17.066667 0 32.426667 0 47.786667-3.413334 10.24 0 18.773333-5.12 27.306666-11.946666zM537.6 238.933333V532.48H477.866667v-293.546667h59.733333z m-119.466667 139.946667v153.6H358.4v-162.133333c0-17.066667 0-32.426667-1.706667-49.493334-1.706667-10.24-6.826667-18.773333-15.36-25.6-11.946667-6.826667-23.893333-11.946667-37.546666-10.24-13.653333 0-27.306667 3.413333-39.253334 10.24-10.24 6.826667-15.36 17.066667-18.773333 29.013334-1.706667 17.066667-3.413333 32.426667-1.706667 49.493333v158.72h-59.733333v-157.013333c0-25.6 1.706667-49.493333 5.12-75.093334 3.413333-11.946667 8.533333-23.893333 17.066667-32.426666 8.533333-10.24 20.48-20.48 34.133333-25.6 20.48-6.826667 42.666667-10.24 63.146667-10.24 18.773333 0 37.546667 1.706667 56.32 8.533333 13.653333 5.12 25.6 13.653333 34.133333 23.893333 8.533333 10.24 15.36 23.893333 17.066667 37.546667 5.12 27.306667 6.826667 51.2 6.826666 76.8z"  horiz-adv-x="1024" />

    
    <glyph glyph-name="ic_pc_5star" unicode="&#58931;" d="M1869.11943 813.860963l58.409982-116.819965c21.903743-43.807487 58.409982-73.012478 102.217469-73.012478l116.819964-14.602495c109.518717-14.602496 153.326203-160.627451 73.012478-240.941177l-80.313726-80.313725c-29.204991-29.204991-51.108734-80.313725-36.506239-124.121212l21.903744-116.819964c21.903743-116.819964-94.916221-204.434938-189.832442-153.326204l-116.819965 58.409982c-36.506239 21.903743-80.313725 21.903743-124.121212 0l-116.819964-58.409982c-102.217469-51.108734-211.736185 36.506239-189.832442 153.326204l21.903743 116.819964c7.301248 43.807487-7.301248 94.916221-36.506239 124.121212l-80.313725 80.313725c-80.313725 80.313725-36.506239 226.338681 73.012477 240.941177l116.819965 14.602495c43.807487 7.301248 80.313725 36.506239 102.217468 73.012478l58.409983 116.819965c36.506239 109.518717 182.531194 109.518717 226.338681 0z m-1241.212122 0l58.409983-116.819965c21.903743-43.807487 58.409982-73.012478 102.217468-73.012478l116.819965-14.602495c109.518717-14.602496 153.326203-160.627451 73.012477-240.941177l-80.313725-80.313725c-29.204991-29.204991-51.108734-80.313725-36.506239-124.121212l21.903743-116.819964c21.903743-116.819964-94.916221-204.434938-189.832442-153.326204l-116.819964 58.409982c-36.506239 21.903743-80.313725 21.903743-124.121212 0l-116.819964-58.409982c-102.217469-51.108734-211.736185 36.506239-189.832443 153.326204l21.903744 116.819964c7.301248 43.807487-7.301248 94.916221-36.506239 124.121212l-87.614973 73.012478C-36.506239 441.497326 7.301248 587.522282 116.819964 602.124777l116.819965 14.602496c43.807487 7.301248 80.313725 36.506239 102.217469 73.012477l58.409982 116.819965C438.074866 923.379679 584.099822 923.379679 627.907308 813.860963z m3723.636364 0l58.409982-116.819965c21.903743-43.807487 58.409982-73.012478 102.217469-73.012478l116.819964-14.602495c109.518717-14.602496 153.326203-160.627451 73.012478-240.941177l-80.313725-80.313725c-29.204991-29.204991-51.108734-80.313725-36.506239-124.121212l21.903743-116.819964c21.903743-116.819964-94.916221-204.434938-189.832442-153.326204l-116.819964 58.409982c-36.506239 21.903743-80.313725 21.903743-124.121213 0l-116.819964-58.409982c-102.217469-51.108734-211.736185 36.506239-189.832442 153.326204l21.903743 116.819964c7.301248 43.807487-7.301248 94.916221-36.506238 124.121212l-80.313726 80.313725c-80.313725 80.313725-36.506239 226.338681 73.012478 240.941177l116.819964 14.602495c43.807487 7.301248 80.313725 36.506239 102.217469 73.012478l58.409982 116.819965c36.506239 109.518717 182.531194 109.518717 226.338681 0z m-1241.212121 0l58.409982-116.819965c21.903743-43.807487 58.409982-73.012478 102.217469-73.012478l116.819964-14.602495c109.518717-14.602496 153.326203-160.627451 73.012478-240.941177l-80.313726-80.313725c-29.204991-29.204991-51.108734-80.313725-36.506238-124.121212l21.903743-116.819964c21.903743-116.819964-94.916221-204.434938-189.832442-153.326204l-116.819965 58.409982c-36.506239 21.903743-80.313725 21.903743-124.121212 0l-116.819964-58.409982c-102.217469-51.108734-211.736185 36.506239-189.832442 153.326204l21.903743 116.819964c7.301248 43.807487-7.301248 94.916221-36.506239 124.121212l-80.313725 80.313725c-80.313725 80.313725-36.506239 226.338681 73.012478 240.941177l116.819964 14.602495c43.807487 7.301248 80.313725 36.506239 102.217469 73.012478l58.409982 116.819965c36.506239 109.518717 182.531194 109.518717 226.338681 0z m2482.424242 0l58.409982-116.819965c21.903743-43.807487 58.409982-73.012478 102.217469-73.012478l116.819965-14.602495c109.518717-14.602496 153.326203-160.627451 73.012477-240.941177l-80.313725-80.313725c-29.204991-29.204991-51.108734-80.313725-36.506239-124.121212l21.903743-116.819964c21.903743-116.819964-94.916221-204.434938-189.832442-153.326204l-116.819964 58.409982c-36.506239 21.903743-80.313725 21.903743-124.121212 0l-116.819965-58.409982c-102.217469-51.108734-211.736185 36.506239-189.832442 153.326204l21.903744 116.819964c7.301248 43.807487-7.301248 94.916221-36.506239 124.121212l-80.313726 80.313725c-80.313725 80.313725-36.506239 226.338681 73.012478 240.941177l116.819964 14.602495c43.807487 7.301248 80.313725 36.506239 102.217469 73.012478l58.409982 116.819965c36.506239 109.518717 182.531194 109.518717 226.338681 0z"  horiz-adv-x="5995" />

    
    <glyph glyph-name="ic_pc_bilibili" unicode="&#58907;" d="M2131.231533-17.384943h-26.792625c-17.049852 2.435693-34.099705 2.435693-51.149557 2.435693-12.178466 0-9.742773 0-12.178466 9.742773-2.435693 31.664011-4.871386 65.763716-9.742772 97.427727-2.435693 29.228318-4.871386 56.020943-7.30708 85.249262-2.435693 26.792625-4.871386 51.149557-9.742773 77.942181l-7.307079 73.070796c-2.435693 31.664011-7.30708 60.89233-9.742773 92.556341-2.435693 26.792625-7.30708 53.58525-9.742773 80.377875-4.871386 41.406784-12.178466 82.813568-17.049852 126.656045-7.30708 43.842477-14.614159 90.120648-21.921238 133.963125-2.435693 7.30708-2.435693 7.30708 7.307079 9.742773 31.664011 4.871386 65.763716 9.742773 97.427727 9.742773h9.742773c4.871386 0 9.742773-2.435693 9.742773-9.742773-2.435693-24.356932 0-46.27817 0-70.635102 2.435693-36.535398 4.871386-75.506489 9.742772-112.041887 2.435693-24.356932 2.435693-48.713864 4.871387-73.070795 2.435693-38.971091 7.30708-77.942182 9.742773-116.913273 2.435693-24.356932 2.435693-46.27817 4.871386-70.635102 2.435693-34.099705 4.871386-70.635102 9.742773-104.734807 2.435693-21.921239 2.435693-43.842477 4.871386-65.763716 2.435693-31.664011 4.871386-65.763716 9.742773-97.427727 2.435693-24.356932 2.435693-51.149557 4.871386-77.942182zM874.413852 781.522421h19.485545c9.742773 0 9.742773-2.435693 12.178466-12.178466 2.435693-41.406784 4.871386-80.377875 7.30708-121.784659 2.435693-43.842477 7.30708-87.684955 9.742772-131.527432 2.435693-38.971091 7.30708-80.377875 9.742773-119.348966 2.435693-43.842477 7.30708-87.684955 12.178466-131.527432 2.435693-34.099705 4.871386-68.199409 7.30708-99.86342 2.435693-31.664011 4.871386-63.328023 9.742772-92.556341l7.30708-80.377875c0-7.30708 0-9.742773-9.742773-9.742773-24.356932 0-48.713864 2.435693-73.070795 2.435693-4.871386 0-7.30708 2.435693-7.30708 7.30708-2.435693 12.178466-2.435693 21.921239-2.435693 34.099704-2.435693 29.228318-4.871386 60.89233-7.307079 90.120648-2.435693 26.792625-4.871386 56.020943-9.742773 82.813568-2.435693 24.356932-4.871386 51.149557-7.30708 75.506489-2.435693 24.356932-4.871386 48.713864-9.742772 75.506489-2.435693 21.921239-4.871386 46.27817-7.30708 68.199409-4.871386 34.099705-7.30708 65.763716-12.178466 99.86342-4.871386 31.664011-9.742773 60.89233-12.178466 92.556341-4.871386 41.406784-12.178466 82.813568-19.485545 124.220352-2.435693 9.742773-2.435693 19.485545-4.871387 26.792625 0 4.871386 0 7.30708 4.871387 7.30708 7.30708 4.871386 21.921239 7.30708 36.535397 9.742772 14.614159 0 29.228318 2.435693 46.278171 2.435694z m1032.733908-404.325068c26.792625 0 29.228318 0 31.664012-24.356932 4.871386-29.228318 9.742773-60.89233 12.178466-90.120648 4.871386-31.664011 7.30708-63.328023 12.178466-97.427727 2.435693-26.792625 4.871386-51.149557 7.307079-77.942182 2.435693-26.792625 4.871386-53.58525 9.742773-80.377875 2.435693-14.614159 2.435693-31.664011 4.871386-46.27817 0-4.871386 0-7.30708-4.871386-7.30708-9.742773 0-19.485545-2.435693-29.228318-2.435693-17.049852-2.435693-34.099705-2.435693-51.149557-4.871386-9.742773 0-9.742773 0-12.178466 7.307079-14.614159 75.506489-31.664011 153.44867-46.27817 228.955159L1812.155726 335.790568c-2.435693 7.30708-2.435693 14.614159-4.871386 21.921239 0 4.871386 0 7.30708 4.871386 7.30708 34.099705 7.30708 65.763716 12.178466 94.992034 12.178466z m-1166.697033 0c29.228318 0 29.228318 0 34.099704-26.792625 7.30708-41.406784 12.178466-80.377875 17.049853-121.78466 4.871386-38.971091 9.742773-80.377875 14.614159-119.348965 2.435693-26.792625 4.871386-53.58525 7.307079-82.813569l7.30708-58.456636v-7.307079c0-9.742773 0-9.742773-9.742773-12.178466-19.485545-2.435693-36.535398-2.435693-56.020943-4.871387-7.30708 0-14.614159-2.435693-19.485545-2.435693-9.742773 0-9.742773 0-9.742773 7.30708-7.30708 31.664011-12.178466 60.89233-19.485546 92.556341-14.614159 73.070795-29.228318 148.577284-43.842477 221.648079-4.871386 29.228318-9.742773 58.456636-17.049852 87.684955 0 4.871386 0 7.30708 4.871386 9.742772 31.664011 12.178466 63.328023 17.049852 90.120648 17.049853zM1132.597329 67.864319V-58.791727c0-4.871386-2.435693-9.742773-7.30708-7.307079h-24.356931c-17.049852 0-34.099705 0-51.149557-2.435694-9.742773 0-9.742773 0-9.742773 9.742773-2.435693 31.664011-4.871386 63.328023-9.742773 92.556341-2.435693 29.228318-4.871386 58.456636-7.307079 85.249261-2.435693 29.228318-4.871386 58.456636-9.742773 87.684955-2.435693 19.485545-2.435693 38.971091-4.871386 58.456636-2.435693 26.792625-4.871386 51.149557-7.30708 77.942182 0 9.742773 0 12.178466 9.742773 14.614159 29.228318 2.435693 56.020943 4.871386 85.249261 2.435693 7.30708 0 14.614159-2.435693 21.921239-2.435693 9.742773-2.435693 9.742773-2.435693 9.742773-12.178466 0-17.049852 2.435693-36.535398 2.435693-53.58525v-58.456636c2.435693-56.020943 2.435693-109.606193 2.435693-165.627136z m1164.26134-4.871387v-121.784659c0-4.871386-2.435693-7.30708-7.307079-7.307079h-36.535398c-14.614159 0-26.792625 0-41.406784-2.435694-9.742773 0-9.742773 0-9.742773 7.30708-4.871386 41.406784-7.30708 80.377875-12.178466 121.784659-2.435693 36.535398-7.30708 75.506489-9.742772 112.041886-2.435693 38.971091-7.30708 77.942182-12.178466 116.913273-2.435693 19.485545-2.435693 38.971091-4.871387 58.456636 0 7.30708 0 9.742773 9.742773 9.742773 17.049852 2.435693 34.099705 2.435693 51.149557 2.435693 17.049852 0 34.099705 0 51.149557-2.435693 14.614159-2.435693 14.614159-2.435693 17.049852-19.485545 2.435693-43.842477 2.435693-87.684955 2.435693-131.527432 0-43.842477 0-92.556341 2.435693-143.705898zM1877.919442 591.538352c9.742773 0 17.049852 0 26.792625-2.435693 4.871386 0 7.30708-2.435693 7.30708-9.742772 2.435693-24.356932 4.871386-51.149557 7.307079-75.506489 2.435693-19.485545 4.871386-41.406784 7.30708-60.89233 2.435693-12.178466 2.435693-12.178466-12.178466-14.614159-12.178466 0-21.921239-2.435693-34.099705-2.435693-7.30708 0-9.742773-2.435693-12.178465 9.742773-4.871386 38.971091-9.742773 75.506489-14.61416 112.041886-2.435693 9.742773-2.435693 21.921239-4.871386 31.664012 0 4.871386 2.435693 9.742773 7.30708 9.742772 7.30708 2.435693 17.049852 2.435693 21.921238 2.435693z m-1161.825647 0c7.30708 0 14.614159 0 24.356932-2.435693 4.871386 0 7.30708-2.435693 7.307079-7.307079 0-12.178466 2.435693-24.356932 4.871387-36.535398 2.435693-36.535398 7.30708-73.070795 9.742773-109.606193 0-7.30708 0-7.30708-7.30708-9.742773-14.614159 0-26.792625-2.435693-41.406784-2.435693-7.30708 0-9.742773 0-9.742773 7.307079-2.435693 26.792625-7.30708 53.58525-9.742773 80.377875l-7.307079 65.763716c0 4.871386 0 7.30708 7.307079 9.742773 4.871386 4.871386 12.178466 4.871386 21.921239 4.871386z m409.196454-99.86342v-68.199409c0-9.742773 0-9.742773-9.742772-9.742773-12.178466 0-24.356932 0-38.971091 2.435693-7.30708 0-7.30708 0-9.742773 9.742773 0 29.228318-2.435693 56.020943-2.435693 85.249261 0 19.485545 0 38.971091-2.435693 56.020944 0 9.742773 0 9.742773 9.742772 9.742772 14.614159 0 29.228318 0 43.842478-2.435693 9.742773-2.435693 9.742773-2.435693 9.742772-9.742773v-73.070795z m1164.261341-2.435693v-68.199409c0-9.742773 0-9.742773-9.742773-9.742773-12.178466 0-26.792625 0-38.971091 2.435693-7.30708 0-7.30708 2.435693-7.307079 9.742773v2.435693c0 43.842477-2.435693 87.684955-2.435693 133.963125v7.30708c0 9.742773 0 9.742773 9.742772 9.742772 12.178466 0 24.356932 0 38.971091-2.435693 14.614159-2.435693 12.178466-2.435693 12.178466-14.614159-2.435693-24.356932-2.435693-46.27817-2.435693-70.635102z m-1605.121806-53.58525c0-12.178466 0-12.178466-12.178466-14.614159-7.30708-2.435693-17.049852-4.871386-24.356932-4.871387-7.30708-2.435693-9.742773 0-9.742773 7.30708-9.742773 46.27817-17.049852 94.992034-26.792625 141.270204-2.435693 9.742773-2.435693 9.742773 9.742773 12.178466 12.178466 2.435693 24.356932 4.871386 36.535398 4.871387 7.30708 0 9.742773 0 9.742773-7.30708l7.307079-51.149557c2.435693-26.792625 7.30708-53.58525 9.742773-80.377875v-7.307079z m1091.190545 136.398818c17.049852 2.435693 31.664011 4.871386 48.713863 7.30708 4.871386 0 7.30708-2.435693 7.30708-7.30708 2.435693-19.485545 7.30708-36.535398 7.307079-56.020943 2.435693-26.792625 7.30708-53.58525 9.742773-80.377875v-7.30708c0-4.871386-2.435693-7.30708-7.307079-7.307079-9.742773-2.435693-21.921239-4.871386-31.664012-7.30708-4.871386 0-7.30708 0-7.307079 4.871387-2.435693 19.485545-7.30708 36.535398-9.742773 56.020943-4.871386 31.664011-12.178466 60.89233-17.049852 92.556341-2.435693 2.435693 0 4.871386 0 4.871386z m-730.707954-107.1705c0-17.049852 0-31.664011-2.435694-43.842477 0-4.871386-2.435693-7.30708-7.307079-7.30708-9.742773 0-21.921239-2.435693-31.664012-2.435693-4.871386 0-7.30708 2.435693-7.307079 7.30708-2.435693 14.614159-2.435693 29.228318-2.435693 43.842477-2.435693 26.792625-4.871386 56.020943-4.871387 82.813568 0 7.30708 0 14.614159-2.435693 19.485545 0 4.871386 2.435693 4.871386 4.871387 4.871387 14.614159 0 26.792625 2.435693 41.406784 2.435693 7.30708 0 9.742773 0 9.742772-9.742773v-17.049852c2.435693-26.792625 2.435693-53.58525 2.435694-80.377875z m1164.26134 17.049852v-56.020943c0-9.742773-2.435693-9.742773-9.742773-12.178466-9.742773 0-19.485545-2.435693-29.228318-2.435693-4.871386 0-7.30708 0-7.30708 7.30708-2.435693 24.356932-2.435693 51.149557-4.871386 75.506488-2.435693 21.921239-2.435693 41.406784-4.871386 63.328023v7.307079c0 4.871386 0 7.30708 4.871386 7.30708 14.614159 0 26.792625 2.435693 41.406784 2.435693 7.30708 0 7.30708 0 9.742773-9.742773V481.932159zM316.640113-27.127715c24.356932 12.178466 138.834511 99.86342 148.577285 112.041886-56.020943 24.356932-112.041886 46.27817-172.934216 63.328023 7.30708-58.456636 17.049852-116.913273 24.356931-175.369909zM643.023 140.935114c17.049852-17.049852 17.049852-38.971091 12.178466-63.328023-4.871386-21.921239-19.485545-41.406784-34.099705-58.456636-26.792625-26.792625-58.456636-48.713864-90.120648-65.763716-58.456636-29.228318-119.348966-51.149557-182.676988-60.892329-46.27817-7.30708-92.556341-14.614159-138.834511-17.049853-14.614159-2.435693-29.228318-2.435693-43.842478-2.435693H133.963125c-9.742773 0-9.742773 2.435693-9.742773 9.742773l-7.307079 94.992034c-2.435693 36.535398-7.30708 73.070795-12.178466 112.041886L97.427727 170.163432c-2.435693 31.664011-7.30708 63.328023-12.178466 94.992034-2.435693 29.228318-7.30708 58.456636-9.742772 87.684955-4.871386 31.664011-7.30708 63.328023-12.178466 97.427727-4.871386 31.664011-9.742773 63.328023-14.614159 92.556341-7.30708 51.149557-17.049852 102.299114-24.356932 153.44867C17.049852 737.679943 9.742773 779.086727 0 820.493511c0 4.871386 0 7.30708 4.871386 9.742773C51.149557 849.72183 99.86342 869.207375 146.141591 888.69292L175.369909 896c7.30708 0 7.30708 0 7.30708-7.30708 0-17.049852 0-31.664011-2.435694-48.713863v-12.178466c0-58.456636-2.435693-116.913273 0-175.369909l7.30708-153.44867c2.435693-41.406784 4.871386-80.377875 9.742773-121.784659 2.435693-38.971091 7.30708-77.942182 12.178466-119.348966 0-7.30708 2.435693-7.30708 9.742772-7.30708 17.049852 2.435693 34.099705 4.871386 51.149557 4.871386 53.58525 0 107.1705-7.30708 160.75575-19.485545 46.27817-9.742773 90.120648-24.356932 133.963125-43.842477 21.921239-9.742773 41.406784-21.921239 60.892329-36.535398 7.30708-4.871386 12.178466-9.742773 17.049853-14.614159z m981.584352-58.456636c2.435693 2.435693 2.435693 4.871386-2.435694 7.307079-7.30708 2.435693-17.049852 7.30708-24.356931 9.742773-43.842477 17.049852-85.249261 34.099705-131.527432 46.27817-4.871386 0-7.30708 4.871386-12.178466 2.435694 7.30708-58.456636 17.049852-114.477579 24.356932-172.934216 2.435693 0 4.871386 0 7.307079 2.435693 41.406784 29.228318 80.377875 58.456636 119.348966 87.684954 7.30708 4.871386 14.614159 9.742773 19.485546 17.049853z m175.369909 68.199409c21.921239-17.049852 29.228318-38.971091 21.921238-68.199409-4.871386-21.921239-17.049852-41.406784-31.664011-58.456637-24.356932-26.792625-53.58525-48.713864-85.249262-65.763716-60.89233-34.099705-126.656045-56.020943-197.291147-68.199409-38.971091-7.30708-75.506489-12.178466-114.47758-14.614159-21.921239-2.435693-43.842477-4.871386-68.199409-2.435693h-29.228318c-4.871386 0-9.742773 2.435693-9.742773 7.30708-2.435693 29.228318-4.871386 56.020943-7.307079 85.249261-2.435693 29.228318-4.871386 58.456636-9.742773 87.684954-2.435693 26.792625-4.871386 53.58525-7.307079 82.813569-2.435693 26.792625-4.871386 51.149557-7.30708 77.942181l-7.307079 73.070796c-2.435693 29.228318-7.30708 58.456636-9.742773 87.684954-2.435693 26.792625-7.30708 53.58525-9.742773 80.377875-4.871386 29.228318-7.30708 58.456636-12.178466 87.684955-4.871386 36.535398-12.178466 75.506489-17.049852 112.041886-9.742773 53.58525-19.485545 107.1705-29.228318 158.320057 0 2.435693 0 4.871386-2.435693 7.307079-2.435693 4.871386 0 7.30708 4.871386 9.742773 48.713864 17.049852 97.427727 41.406784 148.577284 60.89233 7.30708 2.435693 14.614159 4.871386 21.921239 4.871386 7.30708 0 7.30708 0 7.307079-7.30708-2.435693-36.535398-2.435693-73.070795-2.435693-109.606193-2.435693-29.228318-2.435693-58.456636 0-90.120647v-21.921239c0-36.535398 2.435693-70.635102 2.435693-107.1705 2.435693-46.27817 4.871386-94.992034 9.742773-141.270204 2.435693-34.099705 4.871386-68.199409 9.742773-102.299114 2.435693-19.485545 2.435693-36.535398 4.871386-56.020943 2.435693-9.742773 2.435693-9.742773 12.178466-9.742773 17.049852 2.435693 36.535398 4.871386 53.58525 4.871386 63.328023 0 126.656045-9.742773 189.984068-26.792625 41.406784-12.178466 82.813568-26.792625 121.784659-46.27817 17.049852-9.742773 34.099705-19.485545 48.713864-31.664011z"  horiz-adv-x="2313" />

    
    <glyph glyph-name="ic_pc_time" unicode="&#58908;" d="M512 896c281.6 0 512-230.4 512-512s-230.4-512-512-512-512 230.4-512 512 230.4 512 512 512z m0-960c249.6 0 448 198.4 448 448s-198.4 448-448 448-448-198.4-448-448 198.4-448 448-448z m0 448h320v-64H448V704h64v-320z"  horiz-adv-x="1024" />

    
    <glyph glyph-name="ic_pc_QRcode" unicode="&#58909;" d="M0 416h480V896H0v-480z m121.6 358.4h243.2v-243.2H121.6V774.4zM544 896v-480H1024V896H544z m358.4-358.4h-243.2V774.4h243.2v-236.8zM179.2 595.2h121.6V716.8H179.2v-121.6zM0-128h480V352H0V-128z m121.6 358.4h243.2v-243.2H121.6v243.2z m723.2 486.4h-121.6v-121.6h121.6V716.8zM544-128h121.6v121.6H544V-128z m121.6 358.4v-243.2h121.6v243.2h-121.6z m236.8-236.8h-121.6V-128H1024v243.2h-121.6v-121.6z m0 236.8H1024V352h-121.6v-121.6zM544 352v-121.6h121.6V352H544z m-364.8-300.8h121.6v121.6H179.2v-121.6z"  horiz-adv-x="1024" />

    
    <glyph glyph-name="ic_pc_search" unicode="&#58910;" d="M477.866667 622.933333c-112.64 0-204.8-92.16-204.8-204.8s92.16-204.8 204.8-204.8 204.8 92.16 204.8 204.8-92.16 204.8-204.8 204.8m358.4-563.2c-13.653333-13.653333-34.133333-13.653333-47.786667 0l-143.36 143.36C597.333333 165.546667 539.306667 145.066667 477.866667 145.066667c-150.186667 0-273.066667 122.88-273.066667 273.066666s122.88 273.066667 273.066667 273.066667 273.066667-122.88 273.066666-273.066667c0-61.44-20.48-119.466667-58.026666-167.253333l143.36-143.36c13.653333-13.653333 13.653333-34.133333 0-47.786667"  horiz-adv-x="1024" />

    
    <glyph glyph-name="ic_pc_male" unicode="&#58911;" d="M384 42.666667C267.377778 42.666667 170.666667 139.377778 170.666667 256S267.377778 469.333333 384 469.333333s213.333333-96.711111 213.333333-213.333333-96.711111-213.333333-213.333333-213.333333M995.555556 896H540.444444c-17.066667 0-28.444444-11.377778-28.444444-28.444444v-113.777778c0-17.066667 11.377778-28.444444 28.444444-28.444445h190.577778l-142.222222-142.222222c-59.733333 36.977778-128 56.888889-201.955556 56.888889C170.666667 640 0 469.333333 0 256S170.666667-128 384-128 768 42.666667 768 256c0 73.955556-19.911111 142.222222-56.888889 201.955556l142.222222 142.222222V412.444444c0-17.066667 11.377778-28.444444 28.444445-28.444444h113.777778c17.066667 0 28.444444 11.377778 28.444444 28.444444V867.555556c0 17.066667-11.377778 28.444444-28.444444 28.444444"  horiz-adv-x="1024" />

    
    <glyph glyph-name="ic_pc_female" unicode="&#58912;" d="M341.333333 554.666667c0 93.866667 76.8 170.666667 170.666667 170.666666s170.666667-76.8 170.666667-170.666666-76.8-170.666667-170.666667-170.666667-170.666667 76.8-170.666667 170.666667m483.555556-341.333334h-227.555556v11.377778c147.911111 36.977778 256 170.666667 256 329.955556 0 187.733333-153.6 341.333333-341.333333 341.333333S170.666667 742.4 170.666667 554.666667c0-159.288889 108.088889-292.977778 256-329.955556v-11.377778H199.111111c-17.066667 0-28.444444-11.377778-28.444444-28.444444v-113.777778c0-17.066667 11.377778-28.444444 28.444444-28.444444h227.555556v-142.222223c0-17.066667 11.377778-28.444444 28.444444-28.444444h113.777778c17.066667 0 28.444444 11.377778 28.444444 28.444444v142.222223h227.555556c17.066667 0 28.444444 11.377778 28.444444 28.444444v113.777778c0 17.066667-11.377778 28.444444-28.444444 28.444444"  horiz-adv-x="1024" />

    
    <glyph glyph-name="ic_pc_me_wiki" unicode="&#58913;" d="M904.533333 117.76c-32.426667 0-59.733333 27.306667-59.733333 59.733333s27.306667 59.733333 59.733333 59.733334 59.733333-27.306667 59.733334-59.733334c0-34.133333-27.306667-59.733333-59.733334-59.733333z m-472.746666 157.013333c52.906667-20.48 110.933333-20.48 163.84 0L819.2 358.4v-206.506667c0-93.866667-138.24-168.96-305.493333-168.96s-305.493333 75.093333-305.493334 168.96v204.8l223.573334-81.92z m240.64-122.88c-10.24 22.186667-37.546667 30.72-54.613334 20.48-64.853333-30.72-138.24-30.72-201.386666 0-20.48 10.24-44.373333 1.706667-58.026667-20.48-10.24-20.48-1.706667-44.373333 20.48-58.026666 42.666667-20.48 87.04-30.72 136.533333-30.72 44.373333 0 92.16 10.24 136.533334 30.72 20.48 13.653333 29.013333 37.546667 20.48 58.026666z m285.013333 450.56c49.493333-18.773333 49.493333-90.453333 0-107.52l-18.773333-6.826666v-180.906667c0-18.773333-17.066667-34.133333-34.133334-34.133333-18.773333 0-34.133333 17.066667-34.133333 34.133333v157.013333l-276.48-102.4c-52.906667-20.48-110.933333-20.48-163.84 0L68.266667 493.226667c-51.2 18.773333-51.2 90.453333 0 107.52l363.52 134.826666c52.906667 20.48 110.933333 20.48 163.84 0l361.813333-133.12z"  horiz-adv-x="1024" />

    
    <glyph glyph-name="ic_pc_me_game" unicode="&#58914;" d="M750.933333 349.866667c-37.546667 0-68.266667-30.72-68.266666-68.266667s30.72-68.266667 68.266666-68.266667 68.266667 30.72 68.266667 68.266667-30.72 68.266667-68.266667 68.266667m-51.2 341.333333H324.266667c-66.56 0-119.466667-52.906667-119.466667-119.466667s52.906667-119.466667 119.466667-119.466666h375.466666c66.56 0 119.466667 52.906667 119.466667 119.466666s-52.906667 119.466667-119.466667 119.466667M256 162.133333h34.133333v-34.133333c0-29.013333 22.186667-51.2 51.2-51.2s51.2 22.186667 51.2 51.2v34.133333h34.133334c29.013333 0 51.2 22.186667 51.2 51.2s-22.186667 51.2-51.2 51.2h-34.133334v34.133334c0 29.013333-22.186667 51.2-51.2 51.2s-51.2-22.186667-51.2-51.2v-34.133334h-34.133333c-29.013333 0-51.2-22.186667-51.2-51.2s22.186667-51.2 51.2-51.2m375.466667-85.333333c37.546667 0 68.266667 30.72 68.266666 68.266667s-30.72 68.266667-68.266666 68.266666-68.266667-30.72-68.266667-68.266666 30.72-68.266667 68.266667-68.266667m119.466666-102.4H273.066667c-93.866667 0-170.666667 76.8-170.666667 170.666667V622.933333c0 93.866667 76.8 170.666667 170.666667 170.666667h477.866666c93.866667 0 170.666667-76.8 170.666667-170.666667v-477.866666c0-93.866667-76.8-170.666667-170.666667-170.666667"  horiz-adv-x="1024" />

    
    <glyph glyph-name="ic_pc_me_mycmt" unicode="&#58915;" d="M648.533333 361.813333c-51.2 0-90.453333 40.96-90.453333 92.16s40.96 92.16 90.453333 92.16 90.453333-40.96 90.453334-92.16-40.96-92.16-90.453334-92.16m-273.066666 0c-51.2 0-90.453333 40.96-90.453334 92.16s40.96 92.16 90.453334 92.16c51.2 0 90.453333-40.96 90.453333-92.16s-40.96-92.16-90.453333-92.16M602.453333 776.533333h-167.253333C261.12 776.533333 109.226667 640 102.4 464.213333c-3.413333-100.693333 39.253333-191.146667 105.813333-252.586666 49.493333-46.08 69.973333-69.973333 44.373334-133.12-1.706667-5.12-3.413333-8.533333-3.413334-8.533334-20.48-51.2 32.426667-97.28 80.213334-73.386666l226.986666 109.226666s39.253333 20.48 61.44 23.893334c162.133333 13.653333 300.373333 145.066667 303.786667 314.026666C926.72 626.346667 781.653333 776.533333 602.453333 776.533333"  horiz-adv-x="1024" />

    
    <glyph glyph-name="ic_pc_me_home" unicode="&#58916;" d="M802.133333 264.533333v-187.733333c0-56.32-46.08-102.4-102.4-102.4h-85.333333c-10.24 0-17.066667 6.826667-17.066667 17.066667v153.6c0 47.786667-37.546667 85.333333-85.333333 85.333333s-85.333333-37.546667-85.333333-85.333333v-153.6c0-10.24-6.826667-17.066667-17.066667-17.066667h-85.333333c-56.32 0-102.4 46.08-102.4 102.4V264.533333c0 10.24-6.826667 17.066667-17.066667 17.066667H165.546667c-37.546667 0-68.266667 30.72-68.266667 68.266667 0 18.773333 6.826667 35.84 20.48 47.786666l322.56 322.56c39.253333 39.253333 104.106667 39.253333 145.066667 0l322.56-322.56c27.306667-27.306667 27.306667-69.973333 0-97.28-13.653333-13.653333-30.72-20.48-47.786667-20.48H819.2c-10.24 1.706667-17.066667-5.12-17.066667-15.36z"  horiz-adv-x="1024" />

    
    <glyph glyph-name="ic_pc_star_full" unicode="&#58917;" d="M607.573333 716.8l44.373334-88.746667c15.36-32.426667 46.08-52.906667 80.213333-58.026666l95.573333-13.653334c88.746667-11.946667 124.586667-124.586667 59.733334-186.026666l-64.853334-61.44c-25.6-25.6-37.546667-61.44-32.426666-97.28l15.36-90.453334c15.36-88.746667-75.093333-157.013333-155.306667-116.053333l-90.453333 47.786667c-30.72 15.36-66.56 15.36-97.28 0l-90.453334-47.786667c-78.506667-40.96-170.666667 27.306667-155.306666 116.053333l15.36 90.453334c6.826667 35.84-5.12 73.386667-32.426667 97.28L136.533333 368.64C71.68 431.786667 105.813333 542.72 196.266667 554.666667l95.573333 13.653333c34.133333 5.12 64.853333 27.306667 80.213333 58.026667l44.373334 88.746666c39.253333 81.92 151.893333 81.92 191.146666 1.706667"  horiz-adv-x="1024" />

    
    <glyph glyph-name="ic_pc_arrow_down_light" unicode="&#58918;" d="M492.8 230.4L262.4 454.4c-6.4 12.8-6.4 38.4 0 51.2 12.8 6.4 38.4 6.4 51.2 0L512 300.8l204.8 204.8c12.8 12.8 32 12.8 44.8 0 12.8-12.8 12.8-32 0-44.8l-224-224c-12.8-19.2-32-19.2-44.8-6.4z"  horiz-adv-x="1024" />

    
    <glyph glyph-name="ic_pc_arrow_refresh" unicode="&#58919;" d="M249.6 473.6l51.2 6.4c19.2 0 32-12.8 32-25.6 0-19.2-12.8-32-25.6-32l-128-12.8c-19.2 0-32 12.8-32 25.6L128 556.8c0 19.2 12.8 38.4 25.6 38.4s38.4-12.8 38.4-32l6.4-44.8C249.6 633.6 358.4 704 486.4 704c134.4 0 256-89.6 300.8-211.2 6.4-19.2 0-32-19.2-38.4-19.2-6.4-32 0-38.4 19.2C691.2 569.6 595.2 640 486.4 640 377.6 640 281.6 576 249.6 473.6z m473.6-179.2l-51.2-6.4c-19.2 0-32 12.8-32 25.6 0 19.2 12.8 32 25.6 32l128 12.8c19.2 0 32-12.8 32-25.6l12.8-128c0-19.2-12.8-32-25.6-32s-32 12.8-32 25.6l-6.4 44.8c-51.2-108.8-160-179.2-288-179.2-134.4 0-256 89.6-300.8 211.2-6.4 19.2 0 38.4 19.2 44.8 19.2 6.4 32 0 38.4-19.2 38.4-102.4 134.4-172.8 243.2-172.8 108.8 0 204.8 64 236.8 166.4z"  horiz-adv-x="1024" />

    
    <glyph glyph-name="ic_pc_arrow_up_light" unicode="&#58920;" d="M537.6 518.4l224-224c12.8-12.8 12.8-32 0-44.8-12.8-12.8-32-12.8-44.8 0L512 454.4l-204.8-204.8c-12.8-12.8-32-12.8-44.8 0-12.8 12.8-12.8 32 0 44.8l224 224c12.8 12.8 38.4 12.8 51.2 0z"  horiz-adv-x="1024" />

    
    <glyph glyph-name="ic_pc_arrow_left_light" unicode="&#58921;" d="M377.6 409.6l224 224c12.8 12.8 32 12.8 44.8 0 12.8-12.8 12.8-32 0-44.8L441.6 384l204.8-204.8c12.8-12.8 12.8-32 0-44.8-12.8-12.8-32-12.8-44.8 0L377.6 358.4c-12.8 12.8-12.8 38.4 0 51.2z"  horiz-adv-x="1024" />

    
    <glyph glyph-name="ic_pc_arrow_right_light" unicode="&#58922;" d="M646.4 358.4l-224-224c-12.8-12.8-32-12.8-44.8 0-12.8 12.8-12.8 32 0 44.8L582.4 384 377.6 588.8c-12.8 12.8-12.8 32 0 44.8 12.8 12.8 32 12.8 44.8 0l224-224c12.8-12.8 12.8-38.4 0-51.2z"  horiz-adv-x="1024" />

    
    <glyph glyph-name="ic_pc_smal_read" unicode="&#58923;" d="M897.706667 896c68.266667 0 126.293333-58.026667 126.293333-126.293333v-768c0-71.68-58.026667-126.293333-126.293333-126.293334H126.293333C58.026667-128 0-69.973333 0-1.706667V769.706667C0 837.973333 58.026667 896 126.293333 896h771.413334zM512 76.8c314.026667 0 409.6 307.2 409.6 307.2s-102.4 307.2-409.6 307.2-409.6-307.2-409.6-307.2 95.573333-307.2 409.6-307.2z m0 512c112.64 0 204.8-92.16 204.8-204.8s-92.16-204.8-204.8-204.8-204.8 92.16-204.8 204.8 92.16 204.8 204.8 204.8z m0-307.2c58.026667 0 102.4 44.373333 102.4 102.4s-44.373333 102.4-102.4 102.4-102.4-44.373333-102.4-102.4 44.373333-102.4 102.4-102.4z"  horiz-adv-x="1024" />

    
    <glyph glyph-name="ic_pc_smal_time" unicode="&#58924;" d="M546.133333 418.133333h170.666667c20.48 0 34.133333-13.653333 34.133333-34.133333s-13.653333-34.133333-34.133333-34.133333h-204.8c-10.24 0-17.066667 3.413333-23.893333 10.24s-10.24 13.653333-10.24 23.893333V622.933333c0 20.48 13.653333 34.133333 34.133333 34.133334s34.133333-13.653333 34.133333-34.133334v-204.8zM894.293333 896C965.973333 896 1024 837.973333 1024 769.706667v-768c0-71.68-58.026667-129.706667-129.706667-129.706667H129.706667C58.026667-128 0-69.973333 0 1.706667V766.293333C0 837.973333 58.026667 896 129.706667 896h764.586666zM512 42.666667c187.733333 0 341.333333 153.6 341.333333 341.333333S699.733333 725.333333 512 725.333333 170.666667 571.733333 170.666667 384s153.6-341.333333 341.333333-341.333333z"  horiz-adv-x="1024" />

    
    <glyph glyph-name="ic_pc_smal_like" unicode="&#58925;" d="M808.96 172.373333c-17.066667-68.266667-78.506667-95.573333-126.293333-95.573333h-307.2V520.533333s10.24 6.826667 44.373333 40.96S457.386667 691.2 505.173333 691.2s85.333333-37.546667 85.333334-85.333333c0 0 0-85.333333-44.373334-85.333334h218.453334c47.786667 0 88.746667-40.96 88.746666-88.746666s-27.306667-194.56-44.373333-259.413334zM341.333333 76.8H290.133333c-27.306667 0-51.2 20.48-51.2 44.373333V479.573333c0 20.48 23.893333 40.96 51.2 40.96H341.333333v-443.733333zM894.293333 896H129.706667C58.026667 896 0 837.973333 0 766.293333v-768c0-68.266667 58.026667-126.293333 129.706667-126.293333h768c71.68 0 129.706667 58.026667 129.706666 129.706667V766.293333C1024 837.973333 965.973333 896 894.293333 896z"  horiz-adv-x="1027" />

    
    <glyph glyph-name="ic_pc_cmt_dislike" unicode="&#58926;" d="M896 704c-51.2 89.6-121.6 128-192 128H256v-640l64-64c51.2-51.2 57.6-192 128-192s128 57.6 128 128c0 0 6.4 128-64 128h320c70.4 0 128 57.6 128 128l-64 384zM64 768v-512c0-38.4 25.6-64 64-64h64V832H128c-38.4 0-64-25.6-64-64z"  horiz-adv-x="1024" />

    
    <glyph glyph-name="ic_pc_cmt_more" unicode="&#58927;" d="M512 608c-51.2 0-96 44.8-96 96S460.8 800 512 800s96-44.8 96-96S563.2 608 512 608z m0-320c-51.2 0-96 44.8-96 96S460.8 480 512 480s96-44.8 96-96S563.2 288 512 288z m0-320c-51.2 0-96 44.8-96 96s44.8 96 96 96 96-44.8 96-96-44.8-96-96-96z"  horiz-adv-x="1024" />

    
    <glyph glyph-name="ic_pc_cmt_chat" unicode="&#58928;" d="M640 832H384C172.8 832 0 659.2 0 448c0-192 140.8-345.6 320-377.6V-64l320 128c211.2 0 384 172.8 384 384s-172.8 384-384 384zM256 384c-38.4 0-64 25.6-64 64s25.6 64 64 64 64-25.6 64-64-25.6-64-64-64z m256 0c-38.4 0-64 25.6-64 64s25.6 64 64 64 64-25.6 64-64-25.6-64-64-64z m256 0c-38.4 0-64 25.6-64 64s25.6 64 64 64 64-25.6 64-64-25.6-64-64-64z"  horiz-adv-x="1024" />

    
    <glyph glyph-name="ic_pc_cmt_like" unicode="&#58929;" d="M832 576H512c70.4 0 64 128 64 128 0 70.4-57.6 128-128 128S371.2 691.2 320 640L256 576v-640h448c70.4 0 140.8 38.4 192 128l64 384c0 70.4-57.6 128-128 128zM64 512v-512c0-38.4 25.6-64 64-64h64V576H128c-38.4 0-64-25.6-64-64z"  horiz-adv-x="1024" />

    
    <glyph glyph-name="ic_pc_cmt_replay" unicode="&#58930;" d="M1350.4 480c6.4 0 6.4 0 0 0 6.4 0 6.4 6.4 0 0 0 6.4 0 0 0 0zM512 768C300.8 768 128 595.2 128 384s172.8-384 384-384 384 172.8 384 384-172.8 384-384 384z m256-384c0-6.4 0-19.2-6.4-25.6v-6.4c0-6.4-6.4-12.8-12.8-19.2l-134.4-134.4c-25.6-25.6-64-25.6-89.6 0-25.6 25.6-25.6 64 0 89.6l25.6 32H320c-38.4 0-64 32-64 64s25.6 64 64 64h230.4l-25.6 25.6c-25.6 25.6-25.6 64 0 89.6 25.6 25.6 64 25.6 89.6 0l134.4-134.4c6.4-6.4 6.4-12.8 12.8-19.2v-6.4c6.4 0 6.4-12.8 6.4-19.2z"  horiz-adv-x="1355" />

    
    <glyph glyph-name="ic_pc_cmt_more-r" unicode="&#58946;" d="M736.00000001 384c0 51.2 44.8 96 95.99999999 95.99999999S928 435.2 927.99999999 384s-44.8-96-95.99999999-95.99999999S736 332.79999999999995 736.00000001 384z m-320 0c0 51.2 44.8 96 95.99999999 95.99999999S608 435.2 607.99999999 384s-44.8-96-95.99999999-95.99999999S416 332.79999999999995 416.00000001 384z m-320 0c0 51.2 44.8 96 95.99999999 95.99999999s96-44.8 95.99999999-95.99999999-44.8-96-95.99999999-95.99999999-96 44.8-95.99999999 95.99999999z"  horiz-adv-x="1024" />

    


  </font>
</defs>
</svg>
